İstanbul Düğün Fotoğrafçısı

İstanbul Düğün Fotoğrafçısı Fiyatları
 
AnasayfaSSSAramaKayıt OlGaleriGiriş yap

Paylaş | 
 

 WWE Monday Nigth Raw | 03.01.2011 | HDTVRİp

Önceki başlık Sonraki başlık Aşağa gitmek 
YazarMesaj
montevo
S.MOD
S.MOD
avatar

Cinsiyet : Erkek
Mesaj Sayısı : 221
PUAN : 403
Tebrikler : 4
Kayıt tarihi : 14/07/10
Yaş : 31
Nerden Nerden : samsun
Lakap Lakap : montevo

Altın
Wwe Birinciliklerim:

040111
MesajWWE Monday Nigth Raw | 03.01.2011 | HDTVRİp

WWE Monday Ngith Raw 03.01.2011




Falls Count Anywhere Match for the WWE Title: John Morrison vs. The Miz
Melina, Alicia Fox and Maryse vs. Brie Bella, Eve Torres, Natalya
The Usos vs. Vladimir Kozlov and Santino Marella
Alberto Del Rio vs. R-Truth
#1 Contender's Triple Threat Cage Match: Randy Orton vs. Sheamus vs. Wade Barrett

Kod:
Format                          : MPEG-4
Format profile                  : Base Media
Codec ID                        : isom
File size                        : 898 MiB
Duration                        : 1h 31mn
Overall bit rate                : 1 372 Kbps
Encoded date                    : UTC 2011-01-03 11:17:11
Tagged date                      : UTC 2011-01-03 11:17:11
Writing application              : Yamb 2.1.0.0 [http://yamb.unite-video.com]

Video
ID                              : 1
Format                          : AVC
Format/Info                      : Advanced Video Codec
Format profile                  : Main@L3.1
Format settings, CABAC          : Yes
Format settings, ReFrames        : 3 frames
Codec ID                        : avc1
Codec ID/Info                    : Advanced Video Coding
Duration                        : 1h 31mn
Bit rate mode                    : Variable
Bit rate                        : 1 174 Kbps
Maximum bit rate                : 4 705 Kbps
Width                            : 704 pixels
Height                          : 400 pixels
Display aspect ratio            : 16:9
Frame rate mode                  : Constant
Frame rate                      : 29.970 fps
Color space                      : YUV
Chroma subsampling              : 4:2:0
Bit depth                        : 8 bits
Scan type                        : Progressive
Bits/(Pixel*Frame)              : 0.139
Stream size                      : 771 MiB (86%)
Writing library                  : x264 core 88 r1471 1144615
Encoding settings                : cabac=1 / ref=1 / deblock=1:0:0 / analyse=0x1:0 / me=dia / subme=2 / psy=1 / psy_rd=0.00:0.00 / mixed_ref=0 / me_range=16 / chroma_me=1 / trellis=0 / 8x8dct=0 / cqm=0 / deadzone=21,11 / fast_pskip=1 / chroma_qp_offset=0 / threads=12 / sliced_threads=0 / nr=0 / decimate=1 / mbaff=0 / constrained_intra=0 / bframes=3 / b_pyramid=1 / b_adapt=2 / b_bias=0 / direct=3 / wpredb=1 / wpredp=2 / keyint=300 / keyint_min=30 / scenecut=40 / intra_refresh=0 / rc=abr / mbtree=0 / bitrate=1174 / ratetol=1.0 / qcomp=0.60 / qpmin=10 / qpmax=51 / qpstep=4 / ip_ratio=1.40 / pb_ratio=1.30 / aq=1:1.00
Encoded date                    : UTC 2011-01-03 11:17:11
Tagged date                      : UTC 2011-01-03 11:17:54

Audio
ID                              : 2
Format                          : AAC
Format/Info                      : Advanced Audio Codec
Format version                  : Version 4
Format profile                  : LC
Format settings, SBR            : No
Codec ID                        : 40
Duration                        : 1h 31mn
Bit rate mode                    : Variable
Bit rate                        : 192 Kbps
Maximum bit rate                : 201 Kbps
Channel(s)                      : 2 channels
Channel positions                : Front: L R
Sampling rate                    : 48.0 KHz
Stream size                      : 124 MiB (14%)
Encoded date                    : UTC 2011-01-03 11:17:24
Tagged date                      : UTC 2011-01-03 11:17:54


Kod:
http://www.fileserve.com/file/JnFDhgR/WWE.Raw.01.03.11.DSR.XviD-XWT-XTREME-WRESTLING-NETWORK.INFO.avi
http://hotfile.com/dl/94101551/189c121/WWE.Raw.01.03.11.DSR.XviD-XWT-XTREME-WRESTLING-NETWORK.INFO.avi.html
http://rapidshare.com/files/440704973/WWE.Raw.01.03.11.DSR.XviD-XWT.avi.part1.rar
http://rapidshare.com/files/440704937/WWE.Raw.01.03.11.DSR.XviD-XWT.avi.part2.rar
http://hotfile.com/dl/94157273/b9cb99e/raw_xvid_mkv_montevo.rar.html
Sayfa başına dön Aşağa gitmek
Kullanıcı profilini gör
Bu yazıyı burda paylaş : Excite BookmarksDiggRedditDel.icio.usGoogleLiveSlashdotNetscapeTechnoratiStumbleUponNewsvineFurlYahooSmarking

WWE Monday Nigth Raw | 03.01.2011 | HDTVRİp :: Yorum

Yorum yok.
 

WWE Monday Nigth Raw | 03.01.2011 | HDTVRİp

Önceki başlık Sonraki başlık Sayfa başına dön 

1 sayfadaki 1 sayfası

Bu forumun müsaadesi var:Bu forumdaki mesajlara cevap veremezsiniz
İstanbul Düğün Fotoğrafçısı :: Wwe Bölümü :: WWE GÜNCEL HABERLER :: Wwe Güncel Bölümler-
Buraya geçin: